Bienvenido(a) a DT-RECARGADO Para poder DESCARGAR debes... INGRESAR o REGISTRARTE.
DT RECARGADO DT RECARGADO
Mayo 26, 2017, 04:17:31 *
Bienvenido(a), Visitante. Favor de ingresar o registrarse.

Ingresar con nombre de usuario, contraseña y duración de la sesión
Noticias: Para ver el enlace de descarga, cliquea el boton GRACIAS que figura arriba del post del Autor
Advanced Search  
Páginas: [1]   Ir Abajo
  Imprimir  
Autor Tema: Green Lantern (2011)(3D H-SBS 1080p)  (Leído 7 veces)
0 Usuarios y 1 Visitante están viendo este tema.
campitos
Descontrolado DTero
*****

POWER-DT: 0
Desconectado Desconectado

Mensajes: 1716

Registro: : 03/01/17
Panel de Gracias
-Dados: 0
-Recibidos: 3

Avatar Yok


« en: Mayo 19, 2017, 01:19:17 »



TITULO ORIGINAL: The Green Lantern
ANO: 2011
DURACION:105 min.
PAIS: USA
DIRECTOR: Martin Campbell
GUION: Greg Berlanti, Michael Green, Marc Guggenheim, Michael Goldenberg
REPARTO: Ryan Reynolds, Blake Lively, Peter Sarsgaard, Mark Strong, Tim Robbins, Angela Bassett, Temuera Morrison, Jay O. Sanders, Taika Waititi, Mike Doyle
PRODUCTORA: Coproduccion EEUU-Australia; DC Comics / Warner Bros. Pictures
GENERO: Ciencia ficcion. Fantastico. Accion | Superheroes. Extraterrestres. Comic. DC Comics
Sinopsis: Hal Jordan (Ryan Reynolds), un piloto que prueba prototipos, adquiere superpoderes que le son concedidos por un extraterrestre moribundo. Gracias a ello es reclutado para una mision de paz intergalactica... Adaptacion a imagen real del popular personaje de DC Comics, Linterna Verde.
http://www.imdb.com/title/tt1133985/
Trailer
https://www.youtube.com/watch?v=I1mXzOi3B9w

General
Format                                   : Matroska
Format version                           : Version 2
File size                                : 10.4 GiB
Duration                                 : 1h 54mn
Overall bit rate                         : 13.1 Mbps
Encoded date                             : UTC 2012-12-20 22:38:51
Writing application                      : mkvmerge v5.7.0 (The Whirlwind) built on Jul  8 2012 20:08:51
Writing library                          : libebml v1.2.3 + libmatroska v1.3.0
Video
ID                                       : 1
Format                                   : AVC
Format/Info                              : Advanced Video Codec
Format profile                           : High@L4.1
Format settings, CABAC                   : Yes
Format settings, ReFrames                : 5 frames
Codec ID                                 : V_MPEG4/ISO/AVC
Duration                                 : 1h 54mn
Bit rate                                 : 10.5 Mbps
Width                                    : 1 920 pixels
Height                                   : 800 pixels
Display aspect ratio                     : 2.40:1
Frame rate mode                          : Constant
Frame rate                               : 23.976 fps
Color space                              : YUV
Chroma subsampling                       : 4:2:0
Bit depth                                : 8 bits
Scan type                                : Progressive
Bits/(Pixel*Frame)                       : 0.285
Stream size                              : 8.16 GiB (78%)
Writing library                          : x264 core 116 r2074 2641b9e
Language                                 : English
Default                                  : Yes
Forced                                   : No
Audio #1
ID                                       : 2
Format                                   : AC-3
Format/Info                              : Audio Coding 3
Mode extension                           : CM (complete main)
Format settings, Endianness              : Big
Codec ID                                 : A_AC3
Duration                                 : 1h 54mn
Bit rate mode                            : Constant
Bit rate                                 : 448 Kbps
Channel(s)                               : 6 channels
Channel positions                        : Front: L C R, Side: L R, LFE
Sampling rate                            : 48.0 KHz
Bit depth                                : 16 bits
Compression mode                         : Lossy
Stream size                              : 365 MiB (3%)
Title                                    : AC3 5.1
Language                                 : Spanish
Default                                  : Yes
Forced                                   : No
Audio #2
ID                                       : 3
Format                                   : AC-3
Format/Info                              : Audio Coding 3
Mode extension                           : CM (complete main)
Format settings, Endianness              : Big
Codec ID                                 : A_AC3
Duration                                 : 1h 54mn
Bit rate mode                            : Constant
Bit rate                                 : 640 Kbps
Channel(s)                               : 6 channels
Channel positions                        : Front: L C R, Side: L R, LFE
Sampling rate                            : 48.0 KHz
Bit depth                                : 16 bits
Compression mode                         : Lossy
Stream size                              : 522 MiB (5%)
Title                                    : AC3 5.1
Language                                 : English
Default                                  : No
Forced                                   : No
Audio #3
ID                                       : 4
Format                                   : DTS
Format/Info                              : Digital Theater Systems
Mode                                     : 16
Format settings, Endianness              : Big
Codec ID                                 : A_DTS
Duration                                 : 1h 54mn
Bit rate mode                            : Constant
Bit rate                                 : 1 509 Kbps
Channel(s)                               : 6 channels
Channel positions                        : Front: L C R, Side: L R, LFE
Sampling rate                            : 48.0 KHz
Bit depth                                : 24 bits
Compression mode                         : Lossy
Delay relative to video                  : 11ms
Stream size                              : 1.20 GiB (12%)
Title                                    : DTS 5.1
Language                                 : English
Default                                  : No
Forced                                   : No
Text #1
ID                                       : 5
Format                                   : UTF-8
Codec ID                                 : S_TEXT/UTF8
Codec ID/Info                            : UTF-8 Plain Text
Title                                    : Forzados
Language                                 : Spanish
Default                                  : Yes
Forced                                   : No
Text #2
ID                                       : 6
Format                                   : UTF-8
Codec ID                                 : S_TEXT/UTF8
Codec ID/Info                            : UTF-8 Plain Text
Language                                 : Spanish
Default                                  : No
Forced                                   : No









En línea

Páginas: [1]   Ir Arriba
  Imprimir  
 
Ir a:  


DescargasDT ahora es DT-recargado.com